<?xml version="1.0" standalone="no"?>
<!DOCTYPE svg PUBLIC "-//W3C//DTD SVG 1.1//EN" "http://www.w3.org/Graphics/SVG/1.1/DTD/svg11.dtd" >
<svg xmlns="http://www.w3.org/2000/svg">
<metadata>
This is a custom SVG font generated by IcoMoon.
<iconset grid="16"></iconset>
</metadata>
<defs>
<font id="footable" horiz-adv-x="512" >
<font-face units-per-em="512" ascent="480" descent="-32" />
<missing-glyph horiz-adv-x="512" />
<glyph class="hidden" unicode="&#xf000;" d="M0,480L 512 -32L0 -32 z" horiz-adv-x="0" />
<glyph unicode="&#xe000;" d="M 496,288L 320,288 L 320,464 c0,8.836-7.164,16-16,16l-96,0 c-8.836,0-16-7.164-16-16l0-176 L 16,288 c-8.836,0-16-7.164-16-16l0-96
	c0-8.836, 7.164-16, 16-16l 176,0 l0-176 c0-8.836, 7.164-16, 16-16l 96,0 c 8.836,0, 16,7.164, 16,16L 320,160 l 176,0 c 8.836,0, 16,7.164, 16,16l0,96
	C 512,280.836, 504.836,288, 496,288z"  />
<glyph unicode="&#xe001;" d="M0,272l0-96 c0-8.836, 7.164-16, 16-16l 480,0 c 8.836,0, 16,7.164, 16,16l0,96 c0,8.836-7.164,16-16,16L 16,288 C 7.164,288,0,280.836,0,272z"  />
<glyph unicode="&#xe002;" d="M 256,480C 114.615,480,0,365.385,0,224s 114.615-256, 256-256s 256,114.615, 256,256S 397.385,480, 256,480z M 288,192l0-128 l-64,0 L 224,192 L 96,192 l0,64
	l 128,0 L 224,384 l 64,0 l0-128 l 128,0 l0-64 L 288,192 z"  />
<glyph unicode="&#xe003;" d="M 256,480C 114.615,480,0,365.385,0,224s 114.615-256, 256-256s 256,114.615, 256,256S 397.385,480, 256,480z M 416,192L 96,192 l0,64 l 320,0 L 416,192 z"  />
<glyph unicode="&#xe004;" d="M 256,480C 114.615,480,0,365.385,0,224s 114.615-256, 256-256s 256,114.615, 256,256S 397.385,480, 256,480z M 256,32
	c-106.039,0-192,85.961-192,192c0,106.039, 85.961,192, 192,192c 106.039,0, 192-85.961, 192-192C 448,117.961, 362.039,32, 256,32zM 384,192 L 288,192 L 288,96 L 224,96 L 224,192 L 128,192 L 128,256 L 224,256 L 224,352 L 288,352 L 288,256 L 384,256 Z"  />
<glyph unicode="&#xe005;" d="M 256,480C 114.615,480,0,365.385,0,224s 114.615-256, 256-256s 256,114.615, 256,256S 397.385,480, 256,480z M 256,32
	c-106.039,0-192,85.961-192,192c0,106.039, 85.961,192, 192,192c 106.039,0, 192-85.961, 192-192C 448,117.961, 362.039,32, 256,32zM 128,256L 384,256L 384,192L 128,192z"  />
<glyph unicode="&#xe006;" d="M 256,214.857l0-18.286 q0-4 -2.571-6.571t-6.571-2.571l-64,0 l0-64 q0-4 -2.571-6.571t-6.571-2.571l-18.286,0 q-4,0 -6.571,2.571t-2.571,6.571l0,64 l-64,0 q-4,0 -6.571,2.571t-2.571,6.571l0,18.286 q0,4 2.571,6.571t 6.571,2.571l 64,0 l0,64 q0,4 2.571,6.571t 6.571,2.571l 18.286,0 q 4,0 6.571-2.571t 2.571-6.571l0-64 l 64,0 q 4,0 6.571-2.571t 2.571-6.571zM 292.571,105.143l0,201.143 q0,11.429 -8,19.429t-19.429,8l-201.143,0 q-11.429,0 -19.429-8 t-8-19.429l0-201.143 q0-11.429 8-19.429t 19.429-8l 201.143,0 q 11.429,0 19.429,8t 8,19.429zM 329.143,306.286l0-201.143 q0-26.286 -18.714-45.143t-45.286-18.857l-201.143,0 q-26.571,0 -45.286,18.857t-18.714,45.143l0,201.143 q0,26.571 18.714,45.286t 45.286,18.714l 201.143,0 q 26.571,0 45.286-18.714t 18.714-45.286z" horiz-adv-x="329.143"  />
<glyph unicode="&#xe007;" d="M 265.143,370.286q 26.571,0 45.286-18.714t 18.714-45.286l0-201.143 q0-26.286 -18.714-45.143t-45.286-18.857l-201.143,0 q-26.571,0 -45.286,18.857t-18.714,45.143l0,201.143 q0,26.571 18.714,45.286t 45.286,18.714l 201.143,0 zM 292.571,105.143l0,201.143 q0,11.429 -8,19.429t-19.429,8l-201.143,0 q-11.429,0 -19.429-8t-8-19.429l0-201.143 q0-11.429 8-19.429t 19.429-8l 201.143,0 q 11.429,0 19.429,8t 8,19.429z M 246.857,224q 4,0 6.571-2.571t 2.571-6.571l0-18.286 q0-4 -2.571-6.571t-6.571-2.571l-164.571,0 q-4,0 -6.571,2.571t-2.571,6.571l0,18.286 q0,4 2.571,6.571t 6.571,2.571l 164.571,0 z" horiz-adv-x="329.143"  />
<glyph unicode="&#xe008;" d="M 365.714,205.714l0,36.571 q0,7.429 -5.429,12.857t-12.857,5.429l-91.429,0 l0,91.429 q0,7.429 -5.429,12.857t-12.857,5.429l-36.571,0 q-7.429,0 -12.857-5.429t-5.429-12.857l0-91.429 l-91.429,0 q-7.429,0 -12.857-5.429t-5.429-12.857l0-36.571 q0-7.429 5.429-12.857t 12.857-5.429l 91.429,0 l0-91.429 q0-7.429 5.429-12.857t 12.857-5.429l 36.571,0 q 7.429,0 12.857,5.429t 5.429,12.857l0,91.429 l 91.429,0 q 7.429,0 12.857,5.429t 5.429,12.857zM 438.857,361.143l0-274.286  q0-34 -24.143-58.143t-58.143-24.143l-274.286,0 q-34,0 -58.143,24.143t-24.143,58.143l0,274.286 q0,34 24.143,58.143t 58.143,24.143l 274.286,0 q 34,0 58.143-24.143t 24.143-58.143z" horiz-adv-x="438.857"  />
<glyph unicode="&#xe009;" d="M 365.714,205.714l0,36.571 q0,7.429 -5.429,12.857t-12.857,5.429l-256,0 q-7.429,0 -12.857-5.429t-5.429-12.857l0-36.571 q0-7.429 5.429-12.857t 12.857-5.429l 256,0 q 7.429,0 12.857,5.429t 5.429,12.857zM 438.857,361.143l0-274.286 q0-34 -24.143-58.143t-58.143-24.143l-274.286,0 q-34,0 -58.143,24.143t-24.143,58.143l0,274.286 q0,34 24.143,58.143t 58.143,24.143l 274.286,0 q 34,0 58.143-24.143 t 24.143-58.143z" horiz-adv-x="438.857"  />
<glyph unicode="&#xe00a;" d="M 512,224C 512,82.615, 397.385-32, 256-32s -256,114.615, -256,256s 114.615,256, 256,256S 512,365.385, 512,224z M 233.372,374.628
		l -128-128.001C 99.124,240.379, 96,232.189, 96,224s 3.124-16.379 9.372-22.627c 12.497-12.497 32.759-12.497, 45.256,0L 224,274.745
		L 224,96 c 0-17.673 14.327-32 32-32c 17.673,0, 32,14.327, 32,32l0,178.745 l 73.373-73.373c 12.497-12.497 32.758-12.497, 45.255,0
		c 12.497,12.497, 12.497,32.758, 0,45.254l -128,128.001C 266.131,387.124, 245.869,387.124, 233.372,374.628z"  />
<glyph unicode="&#xe00b;" d="M 512,224C 512,365.385, 397.385,480, 256,480s -256-114.615, -256-256s 114.615-256, 256-256S 512,82.615, 512,224z M 233.372,73.372
		l -128,128.001C 99.124,207.621, 96,215.811, 96,224s 3.124,16.379 9.372,22.627c 12.497,12.497 32.759,12.497, 45.256,0L 224,173.255
		L 224,352 c 0,17.673 14.327,32 32,32c 17.673,0, 32-14.327, 32-32l0-178.745 l 73.373,73.373c 12.497,12.497 32.758,12.497, 45.255,0
		c 12.497-12.497, 12.497-32.758, 0-45.254l -128-128.001C 266.131,60.876, 245.869,60.876, 233.372,73.372z"  />
<glyph unicode="&#xe00c;" d="M 256,480C 397.385,480, 512,365.385, 512,224s -114.615-256, -256-256s -256,114.615, -256,256S 114.615,480, 256,480z M 105.372,201.372
		l 128.001-128C 239.621,67.124, 247.811,64, 256,64s 16.379,3.124 22.627,9.372c 12.497,12.497 12.497,32.759,0,45.256L 205.255,192
		L 384,192 c 17.673,0 32,14.327 32,32c0,17.673, -14.327,32, -32,32l-178.745,0 l 73.373,73.373c 12.497,12.497 12.497,32.758,0,45.255
		c -12.497,12.497, -32.758,12.497, -45.254,0l -128.001-128C 92.876,234.131, 92.876,213.869, 105.372,201.372z"  />
<glyph unicode="&#xe00d;" d="M 256,480C 114.615,480,0,365.385,0,224s 114.615-256, 256-256s 256,114.615, 256,256S 397.385,480, 256,480z M 406.628,201.372
		l-128.001-128C 272.379,67.124, 264.189,64, 256,64s-16.379,3.124-22.627,9.372c-12.497,12.497-12.497,32.759,0,45.256L 306.745,192
		L 128,192 c-17.673,0-32,14.327-32,32c0,17.673, 14.327,32, 32,32l 178.745,0 l-73.373,73.373c-12.497,12.497-12.497,32.758,0,45.255
		c 12.497,12.497, 32.758,12.497, 45.254,0l 128.001-128C 419.124,234.131, 419.124,213.869, 406.628,201.372z"  />
<glyph unicode="&#xe00e;" d="M0,160L 96,64L 256,224L 416,64L 512,160L 256.001,416 z"  />
<glyph unicode="&#xe00f;" d="M 512,288L 416,384L 256,224L 96,384L0,288L 256,32.001 z"  />
<glyph unicode="&#xe010;" d="M 320-32L 416,64L 256,224L 416,384L 320,480L 64,224 z"  />
<glyph unicode="&#xe011;" d="M 192,480L 96,384L 256,224L 96,64L 192-32L 448,224 z"  />
<glyph unicode="&#xe012;" d="M 292.571,132.571q0-7.429 -5.429-12.857t-12.857-5.429l-256,0 q-7.429,0 -12.857,5.429t-5.429,12.857t 5.429,12.857l 128,128q 5.429,5.429 12.857,5.429t 12.857-5.429l 128-128q 5.429-5.429 5.429-12.857z" horiz-adv-x="292.571"  />
<glyph unicode="&#xe013;" d="M 292.571,278.857q0-7.429 -5.429-12.857l-128-128q-5.429-5.429 -12.857-5.429t-12.857,5.429l-128,128q-5.429,5.429 -5.429,12.857t 5.429,12.857t 12.857,5.429l 256,0 q 7.429,0 12.857-5.429t 5.429-12.857z" horiz-adv-x="292.571"  />
<glyph unicode="&#xe014;" d="M 182.857,352l0-256 q0-7.429 -5.429-12.857t-12.857-5.429t-12.857,5.429l-128,128q-5.429,5.429 -5.429,12.857t 5.429,12.857l 128,128q 5.429,5.429 12.857,5.429t 12.857-5.429t 5.429-12.857z" horiz-adv-x="182.857"  />
<glyph unicode="&#xe015;" d="M 164.571,224q0-7.429 -5.429-12.857l-128-128q-5.429-5.429 -12.857-5.429t-12.857,5.429t-5.429,12.857l0,256 q0,7.429 5.429,12.857t 12.857,5.429t 12.857-5.429l 128-128q 5.429-5.429 5.429-12.857z" horiz-adv-x="182.857"  />
<glyph unicode="&#xe016;" d="M 256,480L 32-32L 256,64L 480-32 z"  />
<glyph unicode="&#xe017;" d="M 256-32L 480,480L 256,384L 32,480 z"  />
<glyph unicode="&#xe018;" d="M0,224L 512,0L 416,224L 512,448 z"  />
<glyph unicode="&#xe019;" d="M 512,224L0,448L 96,224L0,0 z"  />
<glyph unicode="&#xe01a;" d="M 512,224C 512,82.615, 397.385-32, 256-32s -256,114.615, -256,256s 114.615,256, 256,256S 512,365.385, 512,224z M 48,224
		c 0-114.875 93.125-208 208-208S 464,109.125, 464,224s -93.125,208, -208,208S 48,338.875, 48,224zM 278.627,374.628l 128-128.001c 12.497-12.496 12.497-32.757 0-45.254c -12.497-12.497 -32.758-12.497,-45.255,0L 288,274.745
	L 288,96 c 0-17.673 -14.327-32 -32-32c-17.673,0, -32,14.327, -32,32l0,178.745 l -73.372-73.373c -12.497-12.497 -32.759-12.497,-45.256,0
	C 99.124,207.621, 96,215.811, 96,224s 3.124,16.379, 9.372,22.627l 128,128.001C 245.869,387.124, 266.131,387.124, 278.627,374.628z"  />
<glyph unicode="&#xe01b;" d="M 512,224C 512,365.385, 397.385,480, 256,480s -256-114.615, -256-256s 114.615-256, 256-256S 512,82.615, 512,224z M 48,224
		c 0,114.875 93.125,208 208,208S 464,338.875, 464,224s -93.125-208, -208-208S 48,109.125, 48,224zM 278.627,73.372l 128,128.001c 12.497,12.496 12.497,32.757 0,45.254c -12.497,12.497 -32.758,12.497,-45.255,0L 288,173.255
	L 288,352 c 0,17.673 -14.327,32 -32,32c-17.673,0, -32-14.327, -32-32l0-178.745 l -73.372,73.373c -12.497,12.497 -32.759,12.497,-45.256,0
	C 99.124,240.379, 96,232.189, 96,224s 3.124-16.379, 9.372-22.627l 128-128.001C 245.869,60.876, 266.131,60.876, 278.627,73.372z"  />
<glyph unicode="&#xe01c;" d="M 256,480C 397.385,480, 512,365.385, 512,224s -114.615-256, -256-256s -256,114.615, -256,256S 114.615,480, 256,480z M 256,16
		c 114.875,0 208,93.125 208,208S 370.875,432, 256,432s -208-93.125, -208-208S 141.125,16, 256,16zM 105.372,246.627l 128.001,128c 12.496,12.497 32.757,12.497 45.254,0c 12.497-12.497 12.497-32.758,0-45.255L 205.255,256
	L 384,256 c 17.673,0 32-14.327 32-32c0-17.673, -14.327-32, -32-32l-178.745,0 l 73.373-73.372c 12.497-12.497 12.497-32.759,0-45.256
	C 272.379,67.124, 264.189,64, 256,64s -16.379,3.124, -22.627,9.372l -128.001,128C 92.876,213.869, 92.876,234.131, 105.372,246.627z"  />
<glyph unicode="&#xe01d;" d="M 256,480C 114.615,480,0,365.385,0,224s 114.615-256, 256-256s 256,114.615, 256,256S 397.385,480, 256,480z M 256,16
		c-114.875,0-208,93.125-208,208S 141.125,432, 256,432s 208-93.125, 208-208S 370.875,16, 256,16zM 406.628,246.627l-128.001,128c-12.496,12.497-32.757,12.497-45.254,0c-12.497-12.497-12.497-32.758,0-45.255L 306.745,256
	L 128,256 c-17.673,0-32-14.327-32-32c0-17.673, 14.327-32, 32-32l 178.745,0 l-73.373-73.372c-12.497-12.497-12.497-32.759,0-45.256
	C 239.621,67.124, 247.811,64, 256,64s 16.379,3.124, 22.627,9.372l 128.001,128C 419.124,213.869, 419.124,234.131, 406.628,246.627z"  />
<glyph unicode="&#xe01e;" d="M 307.143,141.714q0-3.714 -2.857-6.571l-14.286-14.286q-2.857-2.857 -6.571-2.857t-6.571,2.857l-112.286,112.286l-112.286-112.286q-2.857-2.857 -6.571-2.857t-6.571,2.857l-14.286,14.286q-2.857,2.857 -2.857,6.571t 2.857,6.571l 133.143,133.143q 2.857,2.857 6.571,2.857t 6.571-2.857l 133.143-133.143q 2.857-2.857 2.857-6.571z" horiz-adv-x="329.143"  />
<glyph unicode="&#xe01f;" d="M 307.143,269.714q0-3.714 -2.857-6.571l-133.143-133.143q-2.857-2.857 -6.571-2.857t-6.571,2.857l-133.143,133.143q-2.857,2.857 -2.857,6.571t 2.857,6.571l 14.286,14.286q 2.857,2.857 6.571,2.857t 6.571-2.857l 112.286-112.286l 112.286,112.286q 2.857,2.857 6.571,2.857t 6.571-2.857l 14.286-14.286q 2.857-2.857 2.857-6.571z" horiz-adv-x="329.143"  />
<glyph unicode="&#xe020;" d="M 179.143,324.571q0-3.714 -2.857-6.571l-112.286-112.286l 112.286-112.286q 2.857-2.857 2.857-6.571t-2.857-6.571l-14.286-14.286q-2.857-2.857 -6.571-2.857t-6.571,2.857l-133.143,133.143q-2.857,2.857 -2.857,6.571t 2.857,6.571l 133.143,133.143q 2.857,2.857 6.571,2.857t 6.571-2.857l 14.286-14.286q 2.857-2.857 2.857-6.571z" horiz-adv-x="182.857"  />
<glyph unicode="&#xe021;" d="M 170,205.714q0-3.714 -2.857-6.571l-133.143-133.143q-2.857-2.857 -6.571-2.857t-6.571,2.857l-14.286,14.286q-2.857,2.857 -2.857,6.571t 2.857,6.571l 112.286,112.286l-112.286,112.286q-2.857,2.857 -2.857,6.571t 2.857,6.571l 14.286,14.286q 2.857,2.857 6.571,2.857t 6.571-2.857l 133.143-133.143q 2.857-2.857 2.857-6.571z" horiz-adv-x="182.857"  />
<glyph unicode="&#xe022;" d="M 292.571,169.143q0-7.429 -5.429-12.857l-128-128q-5.429-5.429 -12.857-5.429t-12.857,5.429l-128,128q-5.429,5.429 -5.429,12.857t 5.429,12.857t 12.857,5.429l 256,0 q 7.429,0 12.857-5.429t 5.429-12.857zM 292.571,278.857q0-7.429 -5.429-12.857t-12.857-5.429l-256,0 q-7.429,0 -12.857,5.429t-5.429,12.857t 5.429,12.857l 128,128q 5.429,5.429 12.857,5.429t 12.857-5.429l 128-128q 5.429-5.429 5.429-12.857z" horiz-adv-x="292.571"  />
<glyph unicode="&#x20;" horiz-adv-x="256" />
</font>
</defs>
</svg>
